(Techno, Electro) VA - Boys Noize - Mixmag Presents Boys Noize And Friends - 2013, FLAC (tracks+.cue), lossless

Страницы:  1

Ответить
Автор
Сообщение

DIMOONNN1

Top Seed 04* 320r

Стаж: 9 лет 2 месяца

Сообщений: 702

DIMOONNN1 · 21-Янв-13 13:56 (6 лет 4 месяца назад)

Boys Noize - Mixmag Presents Boys Noize And Friends
Жанр: Techno, Electro
Год издания: 2013
Издатель (лейбл): Mixmag
Номер по каталогу: MIXMAG 02/13
Аудиокодек: FLAC (*.flac)
Тип рипа: tracks+.cue
Битрейт аудио: lossless
Продолжительность: 01:00:04
Источник (релизер): boerse
Наличие сканов в содержимом раздачи: нет
Треклист:
01. SCNTST - Rhythm Sticks [3:48]
02. Dog Blood - Next Order [3:50]
03. Boys Noize - Ich R U (Jacques Lu Cont Remix) [3:33]
04. Audionite - No Good (Demo Version) [3:53]
05. Baskerville - DumDumDum [4:30]
06. Erol Alkan & Boys Noize - Death Suite [4:54]
07. Mr. Oizo - Pepa & Pepa [2:35]
08. Peaches - Burst (UZ Remix) [3:18]
09. Spank Rock ft. Big Freedia - NASTY (SCNTST Remix Boys Noize Re-Did) [4:21]
10. Djedjotronic - Kaiko (Demo Version) [2:40]
11. Destructo - Technology [3:40]
12. Tracques (Stuart Price) - Click Track [3:08]
13. Boys Noize - Merlin [5:55]
14. Logo - Fabrice [3:53]
15. Tiga - Plush [6:06]
Лог создания рипа
Exact Audio Copy V1.0 beta 3 from 29. August 2011
EAC extraction logfile from 20. January 2013, 18:21
Various Artists / Mixmag [13-02] Boys Noize And Friends
Used drive : SONY DVD-ROM DDU1615 Adapter: 5 ID: 0
Read mode : Secure
Utilize accurate stream : Yes
Defeat audio cache : Yes
Make use of C2 pointers : No
Read offset correction : 6
Overread into Lead-In and Lead-Out : No
Fill up missing offset samples with silence : Yes
Delete leading and trailing silent blocks : No
Null samples used in CRC calculations : Yes
Used interface : Native Win32 interface for Win NT & 2000
Gap handling : Appended to previous track
Used output format : User Defined Encoder
Selected bitrate : 1024 kBit/s
Quality : High
Add ID3 tag : No
Command line compressor : C:\Program Files\Exact Audio Copy\FLAC\FLAC.EXE
Additional command line options : -8 -V -T "ARTIST=%artist%" -T "TITLE=%title%" -T "ALBUM=%albumtitle%" -T "DATE=%year%" -T "TRACKNUMBER=%tracknr%" -T "GENRE=%genre%" -T "PERFORMER=%albuminterpret%" -T "COMPOSER=%composer%" %haslyrics%--tag-from-file=LYRICS="%lyricsfile%"%haslyrics% -T "ALBUMARTIST=%albumartist%" -T "DISCNUMBER=%cdnumber%" -T "TOTALDISCS=%totalcds%" -T "TOTALTRACKS=%numtracks%" -T "COMMENT=%comment%" %source% -o %dest%
TOC of the extracted CD
Track | Start | Length | Start sector | End sector
---------------------------------------------------------
1 | 0:00.00 | 3:48.00 | 0 | 17099
2 | 3:48.00 | 3:49.50 | 17100 | 34324
3 | 7:37.50 | 3:33.21 | 34325 | 50320
4 | 11:10.71 | 3:53.34 | 50321 | 67829
5 | 15:04.30 | 4:29.46 | 67830 | 88050
6 | 19:34.01 | 4:54.29 | 88051 | 110129
7 | 24:28.30 | 2:34.52 | 110130 | 121731
8 | 27:03.07 | 3:17.55 | 121732 | 136561
9 | 30:20.62 | 4:21.22 | 136562 | 156158
10 | 34:42.09 | 2:40.27 | 156159 | 168185
11 | 37:22.36 | 3:40.00 | 168186 | 184685
12 | 41:02.36 | 3:07.62 | 184686 | 198772
13 | 44:10.23 | 5:55.13 | 198773 | 225410
14 | 50:05.36 | 3:53.21 | 225411 | 242906
15 | 53:58.57 | 6:06.04 | 242907 | 270360
Track 1
Filename C:\EAC\Mixmag [13-02] Boys Noize And Friends [FLAC]\01 - SCNTST - Rhythm Sticks.wav
Pre-gap length 0:00:02.00
Peak level 98.8 %
Extraction speed 4.2 X
Track quality 100.0 %
Test CRC 4217ED20
Copy CRC 4217ED20
Track not present in AccurateRip database
Copy OK
Track 2
Filename C:\EAC\Mixmag [13-02] Boys Noize And Friends [FLAC]\02 - Dog Blood - Next Order.wav
Peak level 98.8 %
Extraction speed 4.5 X
Track quality 100.0 %
Test CRC C01DA45E
Copy CRC C01DA45E
Track not present in AccurateRip database
Copy OK
Track 3
Filename C:\EAC\Mixmag [13-02] Boys Noize And Friends [FLAC]\03 - Boys Noize - Ich R U (Jacques Lu Cont Remix).wav
Peak level 98.8 %
Extraction speed 4.5 X
Track quality 100.0 %
Test CRC FEA0F0E5
Copy CRC FEA0F0E5
Track not present in AccurateRip database
Copy OK
Track 4
Filename C:\EAC\Mixmag [13-02] Boys Noize And Friends [FLAC]\04 - Audionite - No Good (Demo Version).wav
Peak level 98.8 %
Extraction speed 5.1 X
Track quality 100.0 %
Test CRC 9FF6FDBF
Copy CRC 9FF6FDBF
Track not present in AccurateRip database
Copy OK
Track 5
Filename C:\EAC\Mixmag [13-02] Boys Noize And Friends [FLAC]\05 - Baskerville - DumDumDum.wav
Peak level 98.8 %
Extraction speed 5.3 X
Track quality 100.0 %
Test CRC F2C98D2D
Copy CRC F2C98D2D
Track not present in AccurateRip database
Copy OK
Track 6
Filename C:\EAC\Mixmag [13-02] Boys Noize And Friends [FLAC]\06 - Erol Alkan & Boys Noize - Death Suite.wav
Peak level 98.8 %
Extraction speed 5.6 X
Track quality 100.0 %
Test CRC 97D18215
Copy CRC 97D18215
Track not present in AccurateRip database
Copy OK
Track 7
Filename C:\EAC\Mixmag [13-02] Boys Noize And Friends [FLAC]\07 - Mr. Oizo - Pepa & Pepa.wav
Peak level 98.8 %
Extraction speed 4.5 X
Track quality 99.9 %
Test CRC 519CA57B
Copy CRC 519CA57B
Track not present in AccurateRip database
Copy OK
Track 8
Filename C:\EAC\Mixmag [13-02] Boys Noize And Friends [FLAC]\08 - Peaches - Burst (UZ Remix).wav
Peak level 98.8 %
Extraction speed 6.0 X
Track quality 100.0 %
Test CRC 5F43CAD2
Copy CRC 5F43CAD2
Track not present in AccurateRip database
Copy OK
Track 9
Filename C:\EAC\Mixmag [13-02] Boys Noize And Friends [FLAC]\09 - Spank Rock ft. Big Freedia - NASTY (SCNTST Remix Boys Noize Re-Did).wav
Peak level 98.8 %
Extraction speed 5.5 X
Track quality 99.9 %
Test CRC A74C8A28
Copy CRC A74C8A28
Track not present in AccurateRip database
Copy OK
Track 10
Filename C:\EAC\Mixmag [13-02] Boys Noize And Friends [FLAC]\10 - Djedjotronic - Kaiko (Demo Version).wav
Peak level 98.8 %
Extraction speed 4.9 X
Track quality 99.9 %
Test CRC 59934142
Copy CRC 59934142
Track not present in AccurateRip database
Copy OK
Track 11
Filename C:\EAC\Mixmag [13-02] Boys Noize And Friends [FLAC]\11 - Destructo - Technology.wav
Peak level 98.8 %
Extraction speed 6.6 X
Track quality 100.0 %
Test CRC 1A840789
Copy CRC 1A840789
Track not present in AccurateRip database
Copy OK
Track 12
Filename C:\EAC\Mixmag [13-02] Boys Noize And Friends [FLAC]\12 - Tracques (Stuart Price) - Click Track.wav
Peak level 98.8 %
Extraction speed 6.7 X
Track quality 100.0 %
Test CRC DCB0C2E3
Copy CRC DCB0C2E3
Track not present in AccurateRip database
Copy OK
Track 13
Filename C:\EAC\Mixmag [13-02] Boys Noize And Friends [FLAC]\13 - Boys Noize - Merlin.wav
Peak level 98.8 %
Extraction speed 6.9 X
Track quality 100.0 %
Test CRC 5925880F
Copy CRC 5925880F
Track not present in AccurateRip database
Copy OK
Track 14
Filename C:\EAC\Mixmag [13-02] Boys Noize And Friends [FLAC]\14 - Logo - Fabrice.wav
Peak level 98.8 %
Extraction speed 6.0 X
Track quality 99.9 %
Test CRC E8EDC1F6
Copy CRC E8EDC1F6
Track not present in AccurateRip database
Copy OK
Track 15
Filename C:\EAC\Mixmag [13-02] Boys Noize And Friends [FLAC]\15 - Tiga - Plush.wav
Peak level 98.8 %
Extraction speed 5.3 X
Track quality 99.9 %
Test CRC 200C7D1B
Copy CRC 200C7D1B
Track not present in AccurateRip database
Copy OK
None of the tracks are present in the AccurateRip database
No errors occurred
End of status report
---- CUETools DB Plugin V2.1.3
[CTDB TOCID: ytHQ8gSy8fpoLKobKGdFac_P5vw-] disk not present in database, Submit result: ytHQ8gSy8fpoLKobKGdFac_P5vw- has been uploaded
==== Log checksum 9A3A315A5CFD5BC67D29A6DA6B5E280643606604D97557CDA30A04598F20ED81 ====
Содержание индексной карты (.CUE)
REM GENRE House
REM DATE 2013
REM DISCID B90E140F
REM COMMENT "ExactAudioCopy v1.0b3"
PERFORMER "Various Artists"
TITLE "Mixmag [13-02] Boys Noize And Friends"
FILE "01 - SCNTST - Rhythm Sticks.wav" WAVE
TRACK 01 AUDIO
TITLE "Rhythm Sticks"
PERFORMER "SCNTST"
INDEX 01 00:00:00
FILE "02 - Dog Blood - Next Order.wav" WAVE
TRACK 02 AUDIO
TITLE "Next Order"
PERFORMER "Dog Blood"
INDEX 01 00:00:00
FILE "03 - Boys Noize - Ich R U (Jacques Lu Cont Remix).wav" WAVE
TRACK 03 AUDIO
TITLE "Ich R U (Jacques Lu Cont Remix)"
PERFORMER "Boys Noize"
INDEX 01 00:00:00
FILE "04 - Audionite - No Good (Demo Version).wav" WAVE
TRACK 04 AUDIO
TITLE "No Good (Demo Version)"
PERFORMER "Audionite"
INDEX 01 00:00:00
FILE "05 - Baskerville - DumDumDum.wav" WAVE
TRACK 05 AUDIO
TITLE "DumDumDum"
PERFORMER "Baskerville"
INDEX 01 00:00:00
FILE "06 - Erol Alkan & Boys Noize - Death Suite.wav" WAVE
TRACK 06 AUDIO
TITLE "Death Suite"
PERFORMER "Erol Alkan & Boys Noize"
INDEX 01 00:00:00
FILE "07 - Mr. Oizo - Pepa & Pepa.wav" WAVE
TRACK 07 AUDIO
TITLE "Pepa & Pepa"
PERFORMER "Mr. Oizo"
INDEX 01 00:00:00
FILE "08 - Peaches - Burst (UZ Remix).wav" WAVE
TRACK 08 AUDIO
TITLE "Burst (UZ Remix)"
PERFORMER "Peaches"
INDEX 01 00:00:00
FILE "09 - Spank Rock ft. Big Freedia - NASTY (SCNTST Remix Boys Noize Re-Did).wav" WAVE
TRACK 09 AUDIO
TITLE "NASTY (SCNTST Remix Boys Noize Re-Did)"
PERFORMER "Spank Rock ft. Big Freedia"
INDEX 01 00:00:00
FILE "10 - Djedjotronic - Kaiko (Demo Version).wav" WAVE
TRACK 10 AUDIO
TITLE "Kaiko (Demo Version)"
PERFORMER "Djedjotronic"
INDEX 01 00:00:00
FILE "11 - Destructo - Technology.wav" WAVE
TRACK 11 AUDIO
TITLE "Technology"
PERFORMER "Destructo"
INDEX 01 00:00:00
FILE "12 - Tracques (Stuart Price) - Click Track.wav" WAVE
TRACK 12 AUDIO
TITLE "Click Track"
PERFORMER "Tracques (Stuart Price)"
INDEX 01 00:00:00
FILE "13 - Boys Noize - Merlin.wav" WAVE
TRACK 13 AUDIO
TITLE "Merlin"
PERFORMER "Boys Noize"
INDEX 01 00:00:00
FILE "14 - Logo - Fabrice.wav" WAVE
TRACK 14 AUDIO
TITLE "Fabrice"
PERFORMER "Logo"
INDEX 01 00:00:00
FILE "15 - Tiga - Plush.wav" WAVE
TRACK 15 AUDIO
TITLE "Plush"
PERFORMER "Tiga"
INDEX 01 00:00:00
Download
Для скачивания .torrent файлов необходима регистрация
Сайт не распространяет и не хранит электронные версии произведений, а лишь предоставляет доступ к создаваемому пользователями каталогу ссылок на торрент-файлы, которые содержат только списки хеш-сумм
[Профиль]  [ЛС] 

bilibili2011

Стаж: 4 года 8 месяцев

Сообщений: 1


bilibili2011 · 13-Окт-14 18:58 (спустя 1 год 8 месяцев)

Torrent is dead, please reupload it, because i really want to download it!!!
thanks.
[Профиль]  [ЛС] 
 
Ответить
Loading...
Error