(Blues - instrumental) Александр Тафинцев - По дороге на Чакино - 2011, FLAC (image+.cue), lossless

Страницы:  1

Ответить
Автор
Сообщение

dzabal

Стаж: 9 лет 5 месяцев

Сообщений: 253


dzabal · 07-Дек-11 10:15 (7 лет 6 месяцев назад, ред. 09-Дек-11 11:39)

Александр Тафинцев - По дороге на Чакино
Жанр: Blues - instrumental
Страна-производитель диска: Россия
Год издания диска: 2011
Издатель (лейбл): Студия Маркел
Страна: Россия
Аудиокодек: FLAC (*.flac)
Тип рипа: image+.cue
Битрейт аудио: lossless
Продолжительность: 00:35:57
Источник (релизер): dzabal
Наличие сканов в содержимом раздачи: да
Треклист:
01. По дороге на Чакино
02. Обловский дизель
03. Не спеша
04. Набирая ход
05. По родному чернозёму
06. Тамбовский ковбой
07. Вперёд со скрипом
08. Сингапур-Чикаго-Рио-де-Жанейро
09. Постепенно приближаясь
10. Степной экспресс
(Blues - instrumental) Александр Тафинцев - По дороге на Чакино - 2011, MP3, 320 kbps - https://rutracker.org/forum/viewtopic.php?t=3652984
Лог создания рипа
Exact Audio Copy V0.99 prebeta 4 from 23. January 2008
Отчёт EAC об извлечении, выполненном 8. декабря 2011, 14:02
Александр Тафинцев / По дороге на Чакино
Дисковод: TSSTcorpCDDVDW SH-S223F Adapter: 2 ID: 0
Режим чтения : Достоверность
Использование точного потока : Да
Отключение кэша аудио : Да
Использование указателей C2 : Нет
Коррекция смещения при чтении : 6
Способность читать области Lead-in и Lead-out : Нет
Заполнение пропущенных сэмплов тишиной : Да
Удаление блоков с тишиной в начале и конце : Нет
При вычислениях CRC использовались нулевые сэмплы : Да
Интерфейс : Установленный внешний ASPI-интерфейс
Выходной формат : Внутренние WAV-операции
Формат сэмплов : 44.100 Гц; 16 бит; стерео
TOC извлечённого CD
Трек | Старт | Длительность | Начальный сектор | Конечный сектор
---------------------------------------------------------------------
1 | 0:00.00 | 3:20.55 | 0 | 15054
2 | 3:20.55 | 3:41.06 | 15055 | 31635
3 | 7:01.61 | 3:55.34 | 31636 | 49294
4 | 10:57.20 | 3:36.00 | 49295 | 65494
5 | 14:33.20 | 3:22.12 | 65495 | 80656
6 | 17:55.32 | 3:27.26 | 80657 | 96207
7 | 21:22.58 | 3:18.73 | 96208 | 111130
8 | 24:41.56 | 3:52.06 | 111131 | 128536
9 | 28:33.62 | 3:54.21 | 128537 | 146107
10 | 32:28.08 | 3:46.69 | 146108 | 163126
Характеристики диапазона извлечения и сообщения об ошибках
Выбранный диапазон
Имя файла D:\Александр Тафинцев - По дороге на Чакино.wav
Пиковый уровень 87.2 %
Качество диапазона 99.9 %
CRC теста B071756A
CRC копии B071756A
Копирование... OK
Ошибок не произошло
Конец отчёта
Download
Для скачивания .torrent файлов необходима регистрация
Сайт не распространяет и не хранит электронные версии произведений, а лишь предоставляет доступ к создаваемому пользователями каталогу ссылок на торрент-файлы, которые содержат только списки хеш-сумм
[Профиль]  [ЛС] 

GrBear

VIP (Заслуженный)

Стаж: 12 лет

Сообщений: 8609

GrBear · 08-Дек-11 00:08 (спустя 13 часов)

dzabal писал(а):
Unknown Artist / Unknown Title
Необходимо переделать рип в соответствии с рекомендациями: Как снять точный потрековый рип аудио CD или Как просто снять точный рип аудио CD.
Желательно выполнять рип в режиме Test&Copy.
[Профиль]  [ЛС] 

GrBear

VIP (Заслуженный)

Стаж: 12 лет

Сообщений: 8609

GrBear · 10-Дек-11 12:52 (спустя 2 дня 12 часов)

dzabal
Не является необходимым требованием правил, но рекомендуется для рипов вида image+.cue добавлять в оформление раздачи содержимое файла .cue (под спойлер).
[Профиль]  [ЛС] 

bot · 11-Мар-19 21:20 (спустя 7 лет 3 месяца)

Тема была перенесена из форума Отечественный шансон (lossless) в форум Отечественный блюз (lossless)
SVSSTUDIO
 
 
Ответить
Loading...
Error