Берег мечты / Porto dos Milagres / Серии: 1-190 (190) (Маркос Пауло, Роберто Наар) [2001, Бразилия, Теленовелла, VHSRip]

Страницы:  1

Ответить
Автор
Сообщение

den-8870

Стаж: 10 лет 8 месяцев

Сообщений: 266

den-8870 · 10-Июн-14 01:19 (5 лет назад, ред. 23-Июн-17 18:42)

Берег мечты / Porto dos Milagres
Год выпуска: 2001
Страна: Бразилия
Производство: Globo
Жанр: Теленовелла
Серии (количество): 190
Продолжительность: 42 минуты (сери
Перевод: профессиональный многоголосый закадровый
Субтитры: Отсутствуют
Режиссёр: Маркос Пауло, Роберто Наар
В ролях: Антониу Фагундес, Кассиа Кисс, Маркос Пальмейра, Флавиа Алессандра, Арлет Саллес, Луиза Томэ, Жозе ди Абреу, Леонардо Брисио, Камила Питанга, Фулвио Стефанини, Луизи Кардозо, Тука Андрада, Каролина Кастинг, Палома Дуарте и др.
Описание: Феликс Герреро предал своего брата-близнеца Бартоломеу, продав его собственность, и сбежал с деньгами в Европу. В Испании он женится на Адме, они живут совершая небольшие грабежи. Однажды Феликсу является цыганка и предсказывает ему, что он займет место Бартоломеу и станет королем. Феликс решает вернуться в Бразилию. Приехав в Порту дус Милагрес, он встречает Бартоломеу. Его брат к этому времени успел оправиться от предательства и подняться еще выше, он почти правит в своем городке. Адма решает отравить Бартоломеу и завладеть всем его богатством, ведь в случае его смерти всё состояние перейдёт к Феликсу. Однако Адма не подозревает, что у Бартоломеу есть любовница Арлетти, которая вот-вот должна родить ему ребёнка - законного наследника...
Доп. информация: В сериях исправлен рассинхрон, добавлены пропущенные серии от blume55 и Amway, сборку предоставила mukhara
Ссылка на предыдущие и альтернативные раздачи: https://rutracker.org/forum/viewtopic.php?t=1203772
Качество: VHSRip
Формат: AVI
Видео кодек: XviD
Аудио кодек: MP3
Видео: XVID 640x480 25.00fps 1000-1500Kbps
Аудио: MPEG Audio Layer 3, 48000Hz, mono, 128Kbps
MI
General
Complete name : E:\Download\Берег мечты\Porto.dos.Milagres_170.avi
Format : AVI
Format/Info : Audio Video Interleave
File size : 513 MiB
Duration : 43mn 49s
Overall bit rate : 1 638 Kbps
Writing library : VirtualDub build 32839/release
Video
ID : 0
Format : MPEG-4 Visual
Format profile : Advanced [email protected]
Format settings, BVOP : 1
Format settings, QPel : No
Format settings, GMC : No warppoints
Format settings, Matrix : Custom
Codec ID : XVID
Codec ID/Hint : XviD
Duration : 43mn 49s
Bit rate : 1 500 Kbps
Width : 640 pixels
Height : 480 pixels
Display aspect ratio : 4:3
Frame rate : 25.000 fps
Color space : YUV
Chroma subsampling : 4:2:0
Bit depth : 8 bits
Scan type : Progressive
Compression mode : Lossy
Bits/(Pixel*Frame) : 0.195
Stream size : 470 MiB (92%)
Writing library : XviD 1.2.0.dev47 (UTC 2006-11-01)
Audio
ID : 1
Format : MPEG Audio
Format version : Version 1
Format profile : Layer 3
Mode : Joint stereo
Mode extension : MS Stereo
Codec ID : 55
Codec ID/Hint : MP3
Duration : 43mn 48s
Bit rate mode : Constant
Bit rate : 128 Kbps
Channel(s) : 2 channels
Sampling rate : 48.0 KHz
Compression mode : Lossy
Stream size : 40.1 MiB (8%)
Alignment : Split accross interleaves
Interleave, duration : 40 ms (1.00 video frame)
Interleave, preload duration : 500 ms
Writing library : LAME3.97
Скриншоты
Download
Для скачивания .torrent файлов необходима регистрация
Сайт не распространяет и не хранит электронные версии произведений, а лишь предоставляет доступ к создаваемому пользователями каталогу ссылок на торрент-файлы, которые содержат только списки хеш-сумм
[Профиль]  [ЛС] 

Юлия Баева

Стаж: 5 лет 7 месяцев

Сообщений: 5

Юлия Баева · 14-Июн-14 06:53 (спустя 4 дня)

раздавать то кто-то собирается?
[Профиль]  [ЛС] 

TRT-World

Стаж: 6 лет 11 месяцев

Сообщений: 189


TRT-World · 17-Июн-14 13:09 (спустя 3 дня, ред. 17-Июн-14 13:09)

аа почему в старых раздачах 175 серий, а здесь 190?
чем ваша раздача отличается
[Профиль]  [ЛС] 

den-8870

Стаж: 10 лет 8 месяцев

Сообщений: 266

den-8870 · 17-Июн-14 21:11 (спустя 8 часов)

TRT-World писал(а):
64287684аа почему в старых раздачах 175 серий, а здесь 190?
чем ваша раздача отличается
Доп. информация: В сериях исправлен рассинхрон, добавлены пропущенные серии от blume55 и Amway,а в старой раздаче из 175 серий даже нет последней серии !
[Профиль]  [ЛС] 

kew-genia

Стаж: 9 лет 2 месяца

Сообщений: 2


kew-genia · 18-Июн-14 10:06 (спустя 12 часов, ред. 20-Июн-14 08:03)

Станьте на раздачу пожалуйста, скорость ноль.
Зачем создавать раздачу если ее невозможно скачать? Дайте скорость пожалуйста.
[Профиль]  [ЛС] 

*СаНчО*

Стаж: 9 лет 10 месяцев

Сообщений: 90

*СаНчО* · 19-Сен-14 16:21 (спустя 3 месяца 1 день)

Огромное спасибо! Жена попросила найти этот сериал - сразу сюда на Rutracker! Благодарю!
[Профиль]  [ЛС] 

snegovik71

Стаж: 8 лет 3 месяца

Сообщений: 282


snegovik71 · 29-Сен-14 11:05 (спустя 9 дней, ред. 29-Сен-14 11:05)

А посидировать?
Сижу, жду еще с двумя пирами. Мы б скачали, так кто бы дал скачать. Даже между собой обменяться нечем: у всех скачано по нулю.
Ураааа! Сид вышел!
....задумчиво: Это был сид или галлюцинация?
[Профиль]  [ЛС] 

loreleya63

Стаж: 7 лет 8 месяцев

Сообщений: 2


loreleya63 · 19-Ноя-14 12:04 (спустя 1 месяц 20 дней)

snegovik71 писал(а):
65299621А посидировать?
Сижу, жду еще с двумя пирами. Мы б скачали, так кто бы дал скачать. Даже между собой обменяться нечем: у всех скачано по нулю.
Ураааа! Сид вышел!
....задумчиво: Это был сид или галлюцинация?
Всё-таки это была галлюцинация... Удаляю, видимо, ждать нечего...
[Профиль]  [ЛС] 

IvanS66

Стаж: 10 лет 9 месяцев

Сообщений: 3037


IvanS66 · 12-Апр-17 13:21 (спустя 2 года 4 месяца)

живые раздающие есть?али все умерли?
[Профиль]  [ЛС] 

mraxim75

Стаж: 2 года 9 месяцев

Сообщений: 3


mraxim75 · 01-Май-17 11:36 (спустя 18 дней)

кто нибудь, дайте газу! жене смотреть нечего...
[Профиль]  [ЛС] 

Draglain

Стаж: 8 лет 9 месяцев

Сообщений: 7


Draglain · 11-Ноя-17 20:24 (спустя 6 месяцев, ред. 12-Ноя-17 01:43)

den-8870
Посидируйте, пожалуйста!Начала скчивать, но скорость очень низкая...раздающих нет((( Дайте пожалуйста докачать.
И огромное спаисбо за раздачу, за Ваш труд!!!
Спасибо большое, скачала!)))
[Профиль]  [ЛС] 
 
Ответить
Loading...
Error