Лауда: Невероятная История / 33 Days / Lauda: The Untold Story (Ханнес Майкл Шалле / Hannes Michael Schalle) [2014, Документальный, HDTVRip 720p] DVO (Матч!)

Страницы:  1

Ответить
Автор
Сообщение

plarin

Top Seed 06* 1280r

Стаж: 10 лет 11 месяцев

Сообщений: 4118

plarin · 06-Окт-17 10:40 (1 год 8 месяцев назад)

Лауда: Невероятная История / 33 Days / Lauda: The Untold Story
Год выпуска: 2014
Страна: Австрия | Великобритания | Moonlake Entertainment | Moonlake Entertainment | Premiere Picture
Жанр: Документальный
Продолжительность: 1:39:41
Перевод: Профессиональный (Двухгоголосый закадровый) | по заказу "Матч!" (Вадим Прохоров, Светлана Климович)
Режиссер: Джонни Оуэн / Jonny Owen
Описание: Документальный фильм рассказывает о событиях связанных с печально известной катастрофой Ники Лауды в Нюрбургринге в 1976 году. Что произошло в этот роковой день и о том, какой мужественный путь прошёл Ники Лауда до выздоровления.

Автор рипа: lrn
Автор записи: Alexin29
Сэмпл: sendfile
Тип релиза: HDTVRip 720p
Контейнер: MKV
Видео: 1280x720 (16:9), 25,000 fps, H264, ~4000 kbps avg, ~0.174 bit/pixel
Аудио: 48 kHz, AC3 Dolby Digital, 2/0 (L,R) ch, ~192.00 kbps avg
MediaInfo
General
Unique ID : 192531599648974227141178321836779899466 (0x90D83CBFB94CCA0DBB07594B30EA0A4A)
Complete name : E:\uTorrent.Temp\Temp\Lauda.The.Untold.Story.2014.HDTVRip.720p.x264-RUS-lrn.mkv
Format : Matroska
Format version : Version 4 / Version 2
File size : 2.53 GiB
Duration : 1 h 26 min
Overall bit rate : 4 193 kb/s
Movie name : Lauda.The.Untold.Story.2014.HDTVRip.720p.x264-RUS-lrn
Encoded date : UTC 2010-02-22 21:41:31
Writing application : mkvmerge v5.9.0 ('On The Loose') built on Dec 9 2012 15:37:01
Writing library : libebml v1.3.0 + libmatroska v1.4.0
Video
ID : 1
Format : AVC
Format/Info : Advanced Video Codec
Format profile : [email protected]
Format settings : CABAC / 8 Ref Frames
Format settings, CABAC : Yes
Format settings, RefFrames : 8 frames
Codec ID : V_MPEG4/ISO/AVC
Duration : 1 h 26 min
Bit rate : 4 000 kb/s
Width : 1 280 pixels
Height : 720 pixels
Display aspect ratio : 16:9
Frame rate mode : Constant
Frame rate : 25.000 FPS
Color space : YUV
Chroma subsampling : 4:2:0
Bit depth : 8 bits
Scan type : Progressive
Bits/(Pixel*Frame) : 0.174
Stream size : 2.37 GiB (93%)
Writing library : x264 core 142 r2479 dd79a61
Encoding settings : cabac=1 / ref=8 / deblock=1:-3:-3 / analyse=0x3:0x133 / me=umh / subme=9 / psy=1 / psy_rd=1.00:0.00 / mixed_ref=1 / me_range=32 / chroma_me=1 / trellis=2 / 8x8dct=1 / cqm=0 / deadzone=21,11 / fast_pskip=1 / chroma_qp_offset=-2 / threads=12 / lookahead_threads=2 / sliced_threads=0 / nr=0 / decimate=1 / interlaced=0 / bluray_compat=0 / constrained_intra=0 / bframes=8 / b_pyramid=2 / b_adapt=2 / b_bias=0 / direct=3 / weightb=1 / open_gop=0 / weightp=2 / keyint=250 / keyint_min=25 / scenecut=40 / intra_refresh=0 / rc_lookahead=50 / rc=2pass / mbtree=1 / bitrate=4000 / ratetol=1.0 / qcomp=0.60 / qpmin=0 / qpmax=69 / qpstep=4 / cplxblur=20.0 / qblur=0.5 / vbv_maxrate=62500 / vbv_bufsize=78125 / nal_hrd=none / filler=0 / ip_ratio=1.40 / aq=1:1.00
Default : Yes
Forced : No
Color range : Limited
Color primaries : BT.709
Transfer characteristics : BT.709
Matrix coefficients : BT.709
Audio
ID : 2
Format : AC-3
Format/Info : Audio Coding 3
Format settings, Endianness : Big
Codec ID : A_AC3
Duration : 1 h 26 min
Bit rate mode : Constant
Bit rate : 192 kb/s
Channel(s) : 2 channels
Channel positions : Front: L R
Sampling rate : 48.0 kHz
Frame rate : 31.250 FPS (1536 SPF)
Bit depth : 16 bits
Compression mode : Lossy
Delay relative to video : -5 ms
Stream size : 119 MiB (5%)
Language : Russian
Service kind : Complete Main
Default : Yes
Forced : No
x264 log
raw [info]: 1280x720p 1:1 @ 25/1 fps (cfr)
x264 [info]: using SAR=1/1
x264 [info]: using cpu capabilities: MMX2 SSE2Fast SSSE3 SSE4.2 AVX
x264 [info]: profile High, level 4.1
x264 [info]: frame I:794 Avg QP:14.95 size:104769
x264 [info]: frame P:32831 Avg QP:17.79 size: 37767
x264 [info]: frame B:96168 Avg QP:20.76 size: 13232
x264 [info]: consecutive B-frames: 2.7% 4.0% 5.4% 57.5% 10.2% 10.7% 4.0% 4.6% 1.0%
x264 [info]: mb I I16..4: 5.3% 80.7% 14.1%
x264 [info]: mb P I16..4: 1.8% 18.3% 1.2% P16..4: 39.2% 19.0% 10.9% 0.4% 0.1% skip: 9.1%
x264 [info]: mb B I16..4: 0.2% 2.4% 0.1% B16..8: 34.0% 11.0% 2.3% direct: 9.0% skip:40.9% L0:42.1% L1:45.0% BI:12.9%
x264 [info]: 8x8 transform intra:85.9% inter:69.1%
x264 [info]: direct mvs spatial:98.8% temporal:1.2%
x264 [info]: coded y,uvDC,uvAC intra: 84.3% 68.8% 34.4% inter: 29.8% 30.3% 2.6%
x264 [info]: i16 v,h,dc,p: 23% 22% 5% 51%
x264 [info]: i8 v,h,dc,ddl,ddr,vr,hd,vl,hu: 12% 14% 6% 7% 11% 12% 13% 11% 14%
x264 [info]: i4 v,h,dc,ddl,ddr,vr,hd,vl,hu: 13% 18% 4% 7% 12% 12% 13% 9% 11%
x264 [info]: i8c dc,h,v,p: 46% 24% 16% 14%
x264 [info]: Weighted P-Frames: Y:5.1% UV:1.8%
x264 [info]: ref P L0: 52.3% 11.0% 15.9% 6.0% 4.7% 3.8% 3.4% 2.5% 0.3% 0.0%
x264 [info]: ref B L0: 79.5% 10.3% 4.5% 2.2% 1.8% 1.0% 0.5%
x264 [info]: ref B L1: 94.7% 5.3%
x264 [info]: kb/s:3999.61
encoded 129793 frames, 15.42 fps, 3999.61 kb/s
Скриншоты
Download
Для скачивания .torrent файлов необходима регистрация
Сайт не распространяет и не хранит электронные версии произведений, а лишь предоставляет доступ к создаваемому пользователями каталогу ссылок на торрент-файлы, которые содержат только списки хеш-сумм
[Профиль]  [ЛС] 

TViST-8484

Стаж: 10 лет 8 месяцев

Сообщений: 2407


TViST-8484 · 19-Ноя-17 14:21 (спустя 1 месяц 13 дней)

полтара часа много... Спасибо за раздачу.
[Профиль]  [ЛС] 

AleNoir

Стаж: 10 лет 6 месяцев

Сообщений: 6

AleNoir · 21-Май-19 15:44 (спустя 1 год 6 месяцев)

Легенда... R.I.P.
[Профиль]  [ЛС] 

D2T

Top 20

Стаж: 12 лет 1 месяц

Сообщений: 1347

D2T · 30-Май-19 20:27 (спустя 9 дней)

Продолжительность: 1:39:41
а выходит 1:26:32. есть одна рекламная вставка. и как то резко обрывается
[Профиль]  [ЛС] 
 
Ответить
Loading...
Error