[TR24][OF] Farres, Jackson, Newman, Wonder, Young - The King's Men - Love from King's - The King's Men, Cambridge - 2018 (Classical)

Страницы:  1

Ответить
Автор
Сообщение

ipokemongo

Стаж: 2 года 8 месяцев

Сообщений: 1042

ipokemongo · 10-Май-19 09:20 (1 месяц 9 дней назад)

The King's Men, Cambridge / Farres, Jackson, Newman, Wonder, Young - The King's Men - Love from King's
Формат записи/Источник записи: [TR24][OF]
Наличие водяных знаков: Нет
Год издания/переиздания диска: 2018
Жанр: Classical
Издатель (лейбл): Kings College
Продолжительность: 00:47:16
Наличие сканов в содержимом раздачи: Буклет PDF
Треклист:
01. Billy Austin, Louis Jordan: Is You Is, or Is You Ain't My Baby? (Arr. James Oxley) 4:09
02. Jackson, M: Billie Jean (Arr. Harry Bradford & Sebastian Johns) 3:08
03. Newman, R: When She Loved Me (Arr. Benedict Kearns) 3:22
04. Bob Thiele, George David Weiss: What a Wonderful World (Arr. Harry Bradford & Sebastian Johns) 4:05
05. Michael Bublé, Alan Chang: Everything (Arr. Ruairi Bowen) 3:45
06. Joe Kosma: Autumn Leaves (Arr. Roland Robertson) 3:29
07. Wonder: Isn't She Lovely (Arr. Harry Bradford) 2:40
08. Erroll Garner, Johnny Burke: Misty (Arr. Sebastian Johns) 2:45
09. Folksong: Scarborough Fair (Arr. Keith Roberts) 3:24
10. Adele Adkins, Paul Epworth: Rolling in the Deep (Arr. Benedict Kearns) 3:55
11. Folksong: O Waly Waly (Arr. Guy Turner) 3:15
12. Farrés: Quizás, Quizás, Quizás (Arr. Toby Young) 2:20
13. Eddie Cooley, John Davenport: Fever (Arr. Peter Foggitt) 3:38
14. Young, Toby: I Carry Your Heart 3:19
The King's Men, Cambridge
Контейнер: FLAC (*.flac)
Тип рипа: tracks
Разрядность: 24/96
Формат: PCM
Количество каналов: 2.0
BackCover
Лог проверки качества
foobar2000 1.4.3 / Dynamic Range Meter 1.1.1
log date: 2019-05-10 10:30:13
--------------------------------------------------------------------------------
Analyzed: The King's Men, Cambridge / Love From King's
--------------------------------------------------------------------------------
DR Peak RMS Duration Track
--------------------------------------------------------------------------------
DR10 -0.48 dB -13.68 dB 4:10 01-Is You Is, or Is You Ain't My Baby? (Arr. James Oxley)
DR8 -0.46 dB -12.00 dB 3:09 02-Billie Jean (Arr. Harry Bradford & Sebastian Johns)
DR10 -0.48 dB -14.41 dB 3:23 03-When She Loved Me (Arr. Benedict Kearns)
DR11 -0.48 dB -15.06 dB 4:06 04-What a Wonderful World (Arr. Harry Bradford & Sebastian Johns)
DR11 -0.48 dB -14.38 dB 3:46 05-Everything (Arr. Ruairi Bowen)
DR9 -0.48 dB -13.82 dB 3:30 06-Autumn Leaves (Arr. Roland Robertson)
DR9 -0.48 dB -13.37 dB 2:40 07-Isn't She Lovely (Arr. Harry Bradford)
DR10 -0.48 dB -13.54 dB 2:45 08-Misty (Arr. Sebastian Johns)
DR10 -0.48 dB -14.83 dB 3:25 09-Scarborough Fair (Arr. Keith Roberts)
DR8 -0.48 dB -11.89 dB 3:56 10-Rolling in the Deep (Arr. Benedict Kearns)
DR11 -0.48 dB -15.87 dB 3:16 11-O Waly Waly (Arr. Guy Turner)
DR9 -0.48 dB -13.49 dB 2:21 12-Quizás, Quizás, Quizás (Arr. Toby Young)
DR11 -0.48 dB -16.09 dB 3:39 13-Fever (Arr. Peter Foggitt)
DR9 -0.48 dB -13.10 dB 3:19 14-I Carry Your Heart
--------------------------------------------------------------------------------
Number of tracks: 14
Official DR value: DR10
Samplerate: 96000 Hz
Channels: 2
Bits per sample: 24
Bitrate: 2728 kbps
Codec: FLAC
================================================================================
Источник (релизер): https://www.prestomusic.com/classical/products/8402832--the-kings-men-love-from-kings
Download
Для скачивания .torrent файлов необходима регистрация
Сайт не распространяет и не хранит электронные версии произведений, а лишь предоставляет доступ к создаваемому пользователями каталогу ссылок на торрент-файлы, которые содержат только списки хеш-сумм
[Профиль]  [ЛС] 
 
Ответить
Loading...
Error