За мной, парни! / Follow Me, Boys! (Норман Токарь / Norman Tokar) [1966, США, драма, семейный, WEB-DLRip] VO (С. Ващенко) + Sub Rus, Eng + Original Eng

Страницы:  1

Ответить
Автор
Сообщение

Pigy

RG Русские сериалы

Стаж: 10 лет 7 месяцев

Сообщений: 5419

Pigy · 20-Май-19 05:12 (30 дней назад, ред. 20-Май-19 05:12)

За мной, парни! / Follow Me, Boys!
Страна: США
Жанр: драма, семейный
Год выпуска: 1966
Продолжительность: 02:11:36
Перевод: Одноголосый закадровый Семен Ващенко
Субтитры: русские (karlivanovich), английские
Оригинальная аудиодорожка: английский
Режиссер: Норман Токарь / Norman Tokar
В ролях: Фред МакМюррэй, Вера Майлз, Лиллиан Гиш, Чарльз Рагглз, Эллиот Рид, Курт Рассел, Луана Паттен, Кен Мюррэй, Дональд Мэй, Шон МакКлори

Описание: 1930 год. Лемуэль Сиддонс - саксофонист, странствующий в небольшом автобусе с группой бродячих музыкантов, мечтает стать адвокатом. Решив, наконец, осесть в одном из небольших городков, он добровольно становится "скаутмастером", создав и возглавив скаутскую группу. Со временем его желание стать юристом ослабевает. Он понимает, что его истинным призванием является вовсе не адвокатская карьера, а помощь в становлении молодёжи этого маленького городка. (Travellier).
Доп. информация: Сведение звука - Diablo, исходник WEB-DL и организация перевода/озвучки - blizzardkid.

Кинопоиск - IMDb
Sample
Качество видео: WEB-DLRip
Формат видео: AVI
Видео: 720x432 (1.67:1), 23.976 fps, XviD build 73 ~1198 kbps avg, 0.16 bit/pixel
Аудио #1: Russian (AC3, 2 ch, 192 kbps, 16 bits, 48.0 KHz) - VO
Аудио #2: English (AC3, 2 ch, 192 kbps, 16 bits, 48.0 KHz) - оригинал
MediaInfo
General
Complete name : D:\Follow Me Boys 1966 WEB-DLRip\Follow Me Boys 1966 WEB-DLRip.avi
Format : AVI
Format/Info : Audio Video Interleave
File size : 1.47 GiB
Duration : 2 h 11 min
Overall bit rate : 1 597 kb/s
Writing application : VirtualDubMod 1.5.10.3 | www.virtualdub-fr.org || (build 2550/release)
Writing library : VirtualDubMod build 2550/release
Video
ID : 0
Format : MPEG-4 Visual
Format profile : Advanced [email protected]
Format settings : BVOP1
Format settings, BVOP : 1
Format settings, QPel : No
Format settings, GMC : No warppoints
Format settings, Matrix : Default (MPEG)
Codec ID : XVID
Codec ID/Hint : XviD
Duration : 2 h 11 min
Bit rate : 1 199 kb/s
Width : 720 pixels
Height : 432 pixels
Display aspect ratio : 5:3
Frame rate : 23.976 (24000/1001) FPS
Color space : YUV
Chroma subsampling : 4:2:0
Bit depth : 8 bits
Scan type : Progressive
Compression mode : Lossy
Bits/(Pixel*Frame) : 0.161
Stream size : 1.10 GiB (75%)
Writing library : XviD 73
Audio #1
ID : 1
Format : AC-3
Format/Info : Audio Coding 3
Codec ID : 2000
Duration : 2 h 11 min
Bit rate mode : Constant
Bit rate : 192 kb/s
Channel(s) : 2 channels
Channel positions : Front: L R
Sampling rate : 48.0 kHz
Frame rate : 31.250 FPS (1536 SPF)
Bit depth : 16 bits
Compression mode : Lossy
Stream size : 181 MiB (12%)
Alignment : Split accross interleaves
Interleave, duration : 42 ms (1.00 video frame)
Interleave, preload duratio : 500 ms
Service kind : Complete Main
Audio #2
ID : 2
Format : AC-3
Format/Info : Audio Coding 3
Codec ID : 2000
Duration : 2 h 11 min
Bit rate mode : Constant
Bit rate : 192 kb/s
Channel(s) : 2 channels
Channel positions : Front: L R
Sampling rate : 48.0 kHz
Frame rate : 31.250 FPS (1536 SPF)
Bit depth : 16 bits
Compression mode : Lossy
Stream size : 181 MiB (12%)
Alignment : Split accross interleaves
Interleave, duration : 42 ms (1.00 video frame)
Interleave, preload duratio : 500 ms
Service kind : Complete Main
Скриншоты
Download
Для скачивания .torrent файлов необходима регистрация
Сайт не распространяет и не хранит электронные версии произведений, а лишь предоставляет доступ к создаваемому пользователями каталогу ссылок на торрент-файлы, которые содержат только списки хеш-сумм
[Профиль]  [ЛС] 
 
Ответить
Loading...
Error